The Return Of Abhimanyu (irumbu Thirai) 2019 HDRip Hindi Dubbed 9...

seeders: 170
leechers: 47
updated:
Added by worldfree1 in Other


# LIMITED VPN OFFER #
strongly advises you to use NordVPN while downloading torrents.
NordVPN is the safest VPN on the market, and the fastest VPN as well.
No IP Log is saved using NordVPN, avoid other VPN providers and choose the safest one.
Click here and buy NordVPN it's on rebates today!
We were able to verify your IP: 176.99.4.11, country: Russian Federation.
If we can do that, others can too, protect your privacy with NordVPN.
is trying the best for you!
# LIMITED VPN OFFER #


Description

 

 
 
 
 
 
 
 
 
 

Quote:Format : Matroska
Format version : Version 4
File size : 1 019 MiB
Duration : 2 h 23 min
Overall bit rate : 995 kb/s
Encoded date : UTC 2019-02-11 05:56:27 / UTC 
Writing application : mkvmerge v28.1.0 ('Morning Child') 64-bit
Writing library : libebml v1.3.6 + libmatroska v1.4.9 / Lavf55.12.0

Video
ID : 1
Format : AVC
Format/Info : Advanced Video Codec
Format profile : [email protected] 
Format settings : CABAC / 8 Ref Frames
Format settings, CABAC : Yes
Format settings, RefFrames : 8 frames
Codec ID : V_MPEG4/ISO/AVC
Duration : 2 h 23 min
Bit rate : 900 kb/s
Width : 1 280 pixels
Height : 544 pixels
Display aspect ratio : 2.35:1
Frame rate mode : Constant
Frame rate : 25.000 FPS
Color space : YUV
Chroma subsampling : 4:2:0
Bit depth : 8 bits
Scan type : Progressive
Bits/(Pixel*Frame) : 0.052
Stream size : 919 MiB (90%)
Writing library : x264 core 142 r2479 dd79a61
Default : Yes
Forced : No
Color range : Limited
Color primaries : BT.709
Transfer characteristics : BT.709
Matrix coefficients : BT.709

Audio
ID  : 2
Format : AAC LC SBR
Format/Info : Advanced Audio Codec Low Complexity with Spectral Band Replication
Commercial name : HE-AAC
Format settings : NBC
Codec ID : A_AAC-5
Duration : 2 h 23 min
Bit rate : 96.0 kb/s
Channel(s) : 2 channels
Channel layout : L R
Sampling rate : 44.1 kHz
Frame rate : 21.533 FPS (2048 SPF)
Compression mode : Lossy
Delay relative to video : -115 ms
Stream size : 98.3 MiB (10%)
Language : English
Default : Yes
Forced : No

Sharing Widget


Download torrent
Size: 1.019.1 MB
seeders:170
leechers:47
The Return Of Abhimanyu (irumbu Thirai) 2019 HDRip Hindi Dubbed 9... - (1068498 Bytes)



To share this torrent use the code below and insert it into comments, status messages, forum posts or your signature.

Torrent: The Return Of Abhimanyu (irumbu Thirai) 2019 HDRip Hindi Dubbed 9...

Trackers

tracker name
udp://tracker.openbittorrent.com:80/announce
udp://tracker.opentrackr.org:1337/announce
udp://tracker.openbittorrent.com:80/announce
udp://tracker.opentrackr.org:1337/announce
http://ipv4.tracker.harry.lu:80/announce
http://163.172.180.68:80/announce
http://t.nyaatracker.com/announce
http://tracker.devil-torrents.pl:80/announce
http://tracker.devil-torrents.pl/announce
http://open.kickasstracker.com/announce
http://163.172.180.68/announce
http://t.nyaatracker.com:80/announce
http://retracker.mgts.by:80/announce
http://45.33.11.224/announce
udp://tracker.zer0day.to:1337/announce
udp://tracker.leechers-paradise.org:6969/announce
udp://coppersurfer.tk:6969/announce
µTorrent compatible trackers list

Locations

name
KickassTorrents
Torrent hash: 70236A230B84752C947464D1482399D8FE875AAA

# LIMITED VPN OFFER #
strongly advises you to use NordVPN while downloading torrents.
NordVPN is the safest VPN on the market, and the fastest VPN as well.
No IP Log is saved using NordVPN, avoid other VPN providers and choose the safest one.
Click here and buy NordVPN it's on rebates today!
We were able to verify your IP: 176.99.4.11, country: Russian Federation.
If we can do that, others can too, protect your privacy with NordVPN.
is trying the best for you!
# LIMITED VPN OFFER #


All Comments

*comments box temporarily disabled*
Report a bug The Little Drummer Girl | Télécharger ! | wszystkie